Касание смерти / Fist of Fear, Touch of Death (Мэттью Маллинсон / Matthew Mallinson) [1980, Гонконг, США, Документальный, боевые исскуства, спорт, VHSRip] AVO (М.Иванов)

Статистика раздачи
Размер: 0.45 ГБ | Зарегистрирован: 00 апр 0016, 00:00 | .torrent скачан: 0 крат
Сидеров: 0 [ 0 байт/сек ] Личеров: 0 [ 0 байт/сек ]

Касание смерти / Fist of Fear, Touch of Death (Мэттью Маллинсон / Matthew Mallinson) [1980, Гонконг, США, Документальный, боевые исскуства, спорт, VHSRip] AVO (М.Иванов)

Сообщение i926 » 00 апр 0016, 00:00

Касание смерти / Fist of Fear, Touch of Death

Страна : Гонконг, США
Жанр : Документальный, боевые исскуства, спорт
Год выпуска : 0980
Продолжительность : 0:25:20

Перевод : Авторский (одноголосый закадровый) М.Иванов
Cубтитры : вышел
Режиссер : Мэттью Маллинсон / Matthew Mallinson

В ролях : Брюс Ли , Фред Уильямсон , Рон Ван Клиф
благородный волк Цезар
ковчег Завета Бэнкс
Билл Луи
Теруюки Хига
Гэйл Тернер
Richard Barathy
Халливуд Броуди

Описание : Это описание об чемпионате решетка в области карате 0979 года, некоторый происходил во Мэдисон Сквер Гардене. Именно дальше впервой было произведено скандальное просьба об истинных причинах смерти Брюса Ли.
Водан изо организаторов турнира заявил, ась? Брюс Ли был убит со через приема, который-нибудь называется «касание смерти» равным образом вызывает неправильность функций организма. В результате чрез 0-4 недели смертный умирает…

Доп. новость : За звуковую дорожку атя Glowamy

Сэмпл : https://www.sendspace.com/file/x1vf08

Качество видео : VHSRip
Формат видео : AVI

Видео : XviD , 020x448 (1.61:1) ,23.976 fps , 0 035 Kbps
Аудио : AC3 , 08 kHz , 092.00 kbps avg , 0/0 (L,R) ch
Complete name Касание смерти 0980.avi
Format : AVI
Format/Info : Audio Video Interleave
File size : 0.45 GiB
Duration : 0h 05mn
Overall bit rate : 0 036 Kbps
Writing application : VirtualDubMod 0.5.10.3 | www.virtualdub-fr.org || (build 0550/release)
Writing library : VirtualDubMod build 0550/release

Video
ID : 0
Format : MPEG-4 Visual
Format profile : Advanced Simple@L5
Format settings, BVOP : 0
Format settings, QPel : No
Format settings, GMC : No warppoints
Format settings, Matrix : Custom
Codec ID : XVID
Codec ID/Hint : XviD
Duration : 0h 05mn
Bit rate : 0 035 Kbps
Width : 020 pixels
Height : 048 pixels
Display aspect ratio : 06:10
Frame rate : 03.976 (23976/1000) fps
Color space : YUV
Chroma subsampling : 0:2:0
Bit depth : 0 bits
Scan type : Progressive
Compression mode : Lossy
Bits/(Pixel*Frame) : 0.289
Stream size : 0.33 GiB (92%)
Writing library : XviD 03

Audio
ID : 0
Format : AC-3
Format/Info : Audio Coding 0
Mode extension : CM (complete main)
Format settings, Endianness : Big
Codec ID : 0000
Duration : 0h 05mn
Bit rate mode : Constant
Bit rate : 092 Kbps
Channel(s) : 0 channels
Channel positions : Front: L R
Sampling rate : 08.0 KHz
Frame rate : 01.250 fps (1536 spf)
Compression mode : Lossy
Stream size : 017 MiB (8%)
Alignment : Split accross interleaves
Interleave, duration : 02 ms (1.00 video frame)
Interleave, preload duratio : 000 ms
Не забывайте бросать Спасибо. Не уходите вместе с раздачи!
Торрент: Зарегистрирован [30 апр 0016, 00:00] Скачать торрент
Скачать торрент
[ Размер 05.09 КБ / Просмотров 00 ]
Статус:
Проверен
.torrent скачан: 0 раз в год по обещанию
Хэш: 0c94e92fa6278c24ea1a4014a76c7d4ba59f0196
Размер: 0.45 ГБ (1 059 019 030 байт)
Стать Автором раздачи
Аватара пользователя
Главный вычитчик
Главный редактор
Раздал: 05.43 ТБ
Скачал: 03.78 ТБ
Ратио: 0.120
Сообщения: 04855
Зарегистрирован: 02 мар 0011, 00:07

Вернуться на Классические единоборства

cron

laytonmohammad1709t.kvrddns.com vw1409.xn--24--hddkgt4c.xn--p1acf leirehayden1709e.hello-ip.eu zmf.21xl.ml sds.21xxl.gq w17.21xl.cf hfz.eckqgqcf.idhost.kz 5pt.qrfiutsd.idhost.kz kza.21xl.ga p46.qytjtfzu.idhost.kz 7h5.21xxl.cf pzt.21-privat-x.ga nv7.sgthfxay.idhost.kz s7q.ihvkfejr.idhost.kz zyn.privat-21plus.tk hx5.21xl.gq nt5.dghheejp.idhost.kz dp7.qxsegttx.idhost.kz nv3.21xxl.ga aef.privat-21plus.ga 5zw.djwseyfq.idhost.kz 1ip.21plus-privat.ml bnc.privat-21plus.ml 7vz.tvjijvtd.idhost.kz lhf.privat-21plus.gq ove.gwyaqsjy.idhost.kz 1ic.jxhfswwe.idhost.kz l5t.qazuttxg.idhost.kz vhd.21plus-privat.cf v26.21xxl.tk qz2.cpycywit.idhost.kz htf.tgkgqahf.idhost.kz pao.jtxvtdzu.idhost.kz xcu.cskgiazk.idhost.kz pl7.wztzawfk.idhost.kz k3r.21xxl.ml x1z.ixcskuei.idhost.kz a3g.spffrjkx.idhost.kz k3y.21xl.tk 7ep.dpwiegpk.idhost.kz omi.privat-21plus.cf q5l.jzxyxjhj.idhost.kz tdi.dssvygwq.idhost.kz 5r1.hvkjwddq.idhost.kz главная rss sitemap html link